[Login] or [Signup]
Login
Username:
Password:
[Signup]
[Recover Account]


Poll


You must be logged in to view polls



Torrent Details For "Paranormal.Activity.(2007).720p.BDRip.Dual.Audio.Org.DD.{Hindi.2Ch+Eng.6Ch}.-~{[email protected]}"

Paranormal.Activity.(2007).720p.BDRip.Dual.Audio.Org.DD.{Hindi.2Ch+Eng.6Ch}.-~{[email protected]}

Download this torrent | Magnet Download
Health:
Seeds: 0
Leechers: 4
Completed:
Last Checked: 02-12-2017 22:49:20
External Torrent
Update Stats
Download Magnet


Poster


iMDB
Imdb Picture Title: Paranormal Activity
Year: 2007
Runtime: 86 minutes
Votes: 194081
Rating: 6.3/10
Language: English
Country: USA
All Genres: Horror, Mystery, Thriller
Plot Outline: After moving into a suburban home, a couple becomes increasingly disturbed by a nightly demonic presence.
Tagline: Dare you experience the U.S. phenomenon? (UK quad poster)
Director: Oren Peli
Writing By: Oren Peli,
Produced By: Jason Blum,Oren Peli,Steven Schneider,Jeanette Brill,Rick Osako,Amir Zbeda,
Plot:

After a young, middle class couple moves into a suburban 'starter' tract house, they become increasingly disturbed by a presence that may or may not be somehow demonic but is certainly most active in the middle of the night. Especially when they sleep. Or try to.

- Written by Paramount Pictures

A young couple, Katie and Micah, move into a new home and Micah records their life on his video camera. After strange events in the night, Katie admits that as a young child, she had once experienced a ghostly presence in her room. She sensed its malevolence and now worries that it may now have followed her to their new place. Micah is skeptical and sets up his camera in their bedroom to record any overnight activity. After a few days, they see their bedroom door move and it's clear there is a presence in their house. Much worse is yet to come.

- Written by garykmcd

Katie and her boyfriend Micah have been living together for three years and out of the blue, they are haunted by an entity while they are sleeping. Katie discloses to Micah that she has been haunted since she was eight year-old. The skeptical Micah buys a camera to videotape the paranormal activity in their home during the night. Katie calls Fredrichs, to help them, but he explains that he is specialist in ghosts. However he feels the presence of a fiend and advises the couple to call a friend of his.

- Written by Claudio Carvalho, Rio de Janeiro, Brazil

After moving into a suburban home, a couple becomes increasingly disturbed by a nightly demonic presence.

- Written by Anonymous
Cast:
Katie Featherston as Katie
Micah Sloat as Micah
Mark Fredrichs as Psychic
Amber Armstrong as Amber
Ashley Palmer as Diane
Crystal Cartwright as Exorcism Nanny
Spencer Marks as Dr. Johann Averies
Randy McDowell as Lt. Randy Hudson
James Piper as Richard
Trailers:
Paranormal Activity: Trailer #2
Paranormal Activity


Watch-Free-HD     Download

Details
Name:Paranormal.Activity.(2007).720p.BDRip.Dual.Audio.Org.DD.{Hindi.2Ch+Eng.6Ch}.-~{[email protected]}
Description:





General
Unique ID                   : 214139494224941779080024424684281645618 (0xA119C434202EDF81B8B1A1F9037BCA32)
Complete name               : Paranormal.Activity.(2007).720p.BDRip.Dual.Audio.Org.DD.{Hindi.2Ch+Eng.6Ch}.-~{[email protected]}~.mkv
Format                      : Matroska
Format version              : Version 4 / Version 2
File size                   : 923 MiB
Duration                    : 1 h 26 min
Overall bit rate            : 1 495 kb/s
Movie name                  : Paranormal.Activity.(2007).720p.BDRip.Dual.Audio.Org.DD.{Hindi.2Ch+Eng.6Ch}.-~{[email protected]}~
Encoded date                : UTC 2017-08-06 10:09:00
Writing application         : mkvmerge v8.6.1 ('Flying') 32bit
Writing library             : libebml v1.3.3 + libmatroska v1.4.4

Video
ID                          : 1
Format                      : AVC
Format/Info                 : Advanced Video Codec
Format profile              : [email protected]
Format settings, CABAC      : Yes
Format settings, ReFrames   : 4 frames
Codec ID                    : V_MPEG4/ISO/AVC
Duration                    : 1 h 26 min
Bit rate                    : 856 kb/s
Width                       : 1 280 pixels
Height                      : 720 pixels
Display aspect ratio        : 16:9
Frame rate mode             : Constant
Frame rate                  : 23.976 (23976/1000) FPS
Original frame rate         : 23.976 (24000/1001) FPS
Color space                 : YUV
Chroma subsampling          : 4:2:0
Bit depth                   : 8 bits
Scan type                   : Progressive
Bits/(Pixel*Frame)          : 0.039
Stream size                 : 529 MiB (57%)
Title                       : Paranormal.Activity.(2007).720p.BDRip.Dual.Audio.Org.DD.{Hindi.2Ch+Eng.6Ch}.-~{[email protected]}~
Language                    : Hindi
Default                     : Yes
Forced                      : No

Audio #1
ID                          : 2
Format                      : AC-3
Format/Info                 : Audio Coding 3
Format settings, Endianness : Big
Codec ID                    : A_AC3
Duration                    : 1 h 24 min
Bit rate mode               : Constant
Bit rate                    : 192 kb/s
Channel(s)                  : 2 channels
Channel positions           : Front: L R
Sampling rate               : 48.0 kHz
Frame rate                  : 31.250 FPS (1536 spf)
Bit depth                   : 16 bits
Compression mode            : Lossy
Delay relative to video     : 45 ms
Stream size                 : 116 MiB (13%)
Title                       : Org DVD DD 2.0 196kbps - [email protected]
Language                    : Hindi
Service kind                : Complete Main
Default                     : Yes
Forced                      : No

Audio #2
ID                          : 3
Format                      : AC-3
Format/Info                 : Audio Coding 3
Format settings, Endianness : Big
Codec ID                    : A_AC3
Duration                    : 1 h 26 min
Bit rate mode               : Constant
Bit rate                    : 448 kb/s
Channel(s)                  : 6 channels
Channel positions           : Front: L C R, Side: L R, LFE
Sampling rate               : 48.0 kHz
Frame rate                  : 31.250 FPS (1536 spf)
Bit depth                   : 16 bits
Compression mode            : Lossy
Stream size                 : 277 MiB (30%)
Title                       : Org DD 5.1 448kbps - [email protected]
Language                    : English
Service kind                : Complete Main
Default                     : No
Forced                      : No

Text
ID                          : 4
Format                      : UTF-8
Codec ID                    : S_TEXT/UTF8
Codec ID/Info               : UTF-8 Plain Text
Duration                    : 1 h 22 min
Bit rate                    : 69 b/s
Count of elements           : 1113
Stream size                 : 42.1 KiB (0%)
Title                       : ~(SDH)~
Language                    : English
Default                     : Yes
Forced                      : No
Category:Movies > Hollywood Dub
Lang:Hindi
Total Size:922.79 MB
Info Hash:2e32b84c60e67f817bf7dcaa45fa1f1d3dd515ad
Added By:Shrawankk
Date Added:06-08-2017 09:01:51
Views:363
Hits:75

Download Torrent

Ratings:Not Yet Rated (Log in to rate it)


Tracker:
http://bigfoot1942.sektori.org:6969/announce

This Torrent also has backup trackers
URLSeedersLeechersCompleted
http://bigfoot1942.sektori.org:6969/announce000
http://tracker2.wasabii.com.tw:6969/announce000
http://bt.artvid.ru:6969/announce000
http://tracker.opentrackr.org/announce000
http://announce.torrentsmd.com:6969/announce000
http://tracker.trackerfix.com/announce000
http://tracker.opentrackr.org/announce000
http://tracker.istole.it/announce000
http://tracker.publicbt.com/announce000
http://bigfoot1942.sektori.org:6969/announce000
http://tracker.tfile.me/announce000
http://explodie.org:6969/announce000
http://tracker.aletorrenty.pl:2710/announce000
http://torrent.gresille.org/announce000


File List: 


Comments

No comments still posted

Powered by 10 Hamsters v2-svn -|- Page Generated In 0.518064 secs.
-|- RSS FEED
Theme By: Nikkbu