[Login] or [Signup]
Login
Username:
Password:
[Signup]
[Recover Account]


Poll


You must be logged in to view polls



Torrent Details For "Terminal 2018 1080p BluRay x264 DTS [MW]"

Terminal 2018 1080p BluRay x264 DTS [MW]

Download this torrent | Magnet Download
Health:
Seeds: 136
Leechers: 288
Completed: 201 
Last Checked: 29-06-2018 13:07:27
External Torrent
Update Stats
Download Magnet


Poster
No poster


Watch-Free-HD     Download

Details
Name:Terminal 2018 1080p BluRay x264 DTS [MW]
Description:

 


General
Format : Matroska
Format version : Version 4 / Version 2
File size : 2.65 GiB
Duration : 1 h 35 min
Overall bit rate : 3 971 kb/s

Video
ID : 1
Format : AVC
Format/Info : Advanced Video Codec
Format profile : [email protected]
Format settings : CABAC / 4 Ref Frames
Format settings, CABAC : Yes
Format settings, RefFrames : 4 frames
Codec ID : V_MPEG4/ISO/AVC
Duration : 1 h 35 min
Bit rate : 2 500 kb/s
Width : 1 920 pixels
Height : 1 080 pixels
Display aspect ratio : 16:9
Frame rate mode : Constant
Frame rate : 23.976 (24000/1001) FPS
Color space : YUV
Chroma subsampling : 4:2:0
Bit depth : 8 bits
Scan type : Progressive
Bits/(Pixel*Frame) : 0.050
Stream size : 1.63 GiB (62%)
Writing library : x264 core 155 r2901 7d0ff22
Default : Yes
Forced : No

Audio
ID : 3
Format : DTS
Format/Info : Digital Theater Systems
Codec ID : A_DTS
Duration : 1 h 35 min
Bit rate mode : Constant
Bit rate : 1 509 kb/s
Channel(s) : 6 channels
Channel positions : Front: L C R, Side: L R, LFE
Sampling rate : 48.0 kHz
Frame rate : 93.750 FPS (512 SPF)
Bit depth : 24 bits
Compression mode : Lossy
Stream size : 1.01 GiB (38%)
Language : English
Default : Yes
Forced : No

Text
ID : 2
Format : PGS
Muxing mode : zlib
Codec ID : S_HDMV/PGS
Codec ID/Info : Picture based subtitle format used on BDs/HD-DVDs
Duration : 1 h 34 min
Bit rate : 11.3 kb/s
Count of elements : 3304
Stream size : 7.65 MiB (0%)
Language : English
Default : Yes
Forced : No

Menu
00:00:00.000 : en:Chapter 1
00:15:52.285 : en:Chapter 2
00:23:18.272 : en:Chapter 3
00:29:32.896 : en:Chapter 4
00:35:36.843 : en:Chapter 5
00:43:55.216 : en:Chapter 6
00:54:12.249 : en:Chapter 7
01:12:13.621 : en:Chapter 8
01:16:50.856 : en:Chapter 9
01:32:24.539 : en:Chapter 10

Click To Enlarge Image
 
 
 
 
 
 
 

Category:Movies > 1080P Bluray
Lang:English  English
Total Size:2.65 GB
Info Hash:5aaf97f5979f3cd787c7b4b4f0fba96d7b649e57
Added By:Freaky
Date Added:29-06-2018 11:38:53
Views:352
Hits:21

Download Torrent

Ratings:Not Yet Rated (Log in to rate it)


Tracker:
udp://tracker.coppersurfer.tk:6969/announce


File List: 


Comments

No comments still posted

Powered by 10 Hamsters v2-svn -|- Page Generated In 0.931725 secs.
-|- RSS FEED
Theme By: Nikkbu