[Login] or [Signup]
Login
Username:
Password:
[Signup]
[Recover Account]


Poll


You must be logged in to view polls



Torrent Details For "The Legacy of a Whitetail Deer Hunter 2018 1080p WEBRip DD 5.1 x264 [MW]"

The Legacy of a Whitetail Deer Hunter 2018 1080p WEBRip DD 5.1 x264 [MW]

Download this torrent | Magnet Download
Health:
Seeds: 32
Leechers: 43
Completed: 27 
Last Checked: 07-07-2018 21:45:40
External Torrent
Update Stats
Download Magnet


Poster
No poster


Watch-Free-HD     Download

Details
Name:The Legacy of a Whitetail Deer Hunter 2018 1080p WEBRip DD 5.1 x264 [MW]
Description:

 

General
Format                                   : Matroska
Format version                           : Version 4 / Version 2
File size                                : 1.92 GiB
Duration                                 : 1 h 23 min
Overall bit rate                         : 3 295 kb/s

Video
ID                                       : 1
Format                                   : AVC
Format/Info                              : Advanced Video Codec
Format profile                           : [email protected]
Format settings                          : CABAC / 4 Ref Frames
Format settings, CABAC                   : Yes
Format settings, RefFrames               : 4 frames
Codec ID                                 : V_MPEG4/ISO/AVC
Duration                                 : 1 h 23 min
Bit rate                                 : 3 000 kb/s
Width                                    : 1 920 pixels
Height                                   : 804 pixels
Display aspect ratio                     : 2.40:1
Frame rate mode                          : Constant
Frame rate                               : 23.976 (24000/1001) FPS
Color space                              : YUV
Chroma subsampling                       : 4:2:0
Bit depth                                : 8 bits
Scan type                                : Progressive
Bits/(Pixel*Frame)                       : 0.081
Stream size                              : 1.69 GiB (88%)
Writing library                          : x264 core 155 r2901 7d0ff22
Default                                  : Yes
Forced                                   : No

Audio
ID                                       : 2
Format                                   : AC-3
Format/Info                              : Audio Coding 3
Codec ID                                 : A_AC3
Duration                                 : 1 h 23 min
Bit rate mode                            : Constant
Bit rate                                 : 384 kb/s
Channel(s)                               : 6 channels
Channel positions                        : Front: L C R, Side: L R, LFE
Sampling rate                            : 48.0 kHz
Frame rate                               : 31.250 FPS (1536 SPF)
Bit depth                                : 16 bits
Compression mode                         : Lossy
Stream size                              : 229 MiB (12%)
Language                                 : English
Service kind                             : Complete Main
Default                                  : Yes
Forced                                   : No

Text #1
ID                                       : 3
Format                                   : UTF-8
Codec ID                                 : S_TEXT/UTF8
Codec ID/Info                            : UTF-8 Plain Text
Duration                                 : 1 h 21 min
Bit rate                                 : 82 b/s
Count of elements                        : 1365
Stream size                              : 49.8 KiB (0%)
Language                                 : English
Default                                  : No
Forced                                   : No

Text #2
ID                                       : 4
Format                                   : UTF-8
Codec ID                                 : S_TEXT/UTF8
Codec ID/Info                            : UTF-8 Plain Text
Duration                                 : 1 h 22 min
Bit rate                                 : 57 b/s
Count of elements                        : 1119
Stream size                              : 34.4 KiB (0%)
Language                                 : French
Default                                  : No
Forced                                   : No

Text #3
ID                                       : 5
Format                                   : UTF-8
Codec ID                                 : S_TEXT/UTF8
Codec ID/Info                            : UTF-8 Plain Text
Duration                                 : 1 h 22 min
Bit rate                                 : 58 b/s
Count of elements                        : 1115
Stream size                              : 35.4 KiB (0%)
Language                                 : German
Default                                  : No
Forced                                   : No

Text #4
ID                                       : 6
Format                                   : UTF-8
Codec ID                                 : S_TEXT/UTF8
Codec ID/Info                            : UTF-8 Plain Text
Duration                                 : 1 h 22 min
Bit rate                                 : 102 b/s
Count of elements                        : 1140
Stream size                              : 61.8 KiB (0%)
Language                                 : Greek
Default                                  : No
Forced                                   : No

Text #5
ID                                       : 7
Format                                   : UTF-8
Codec ID                                 : S_TEXT/UTF8
Codec ID/Info                            : UTF-8 Plain Text
Duration                                 : 1 h 22 min
Bit rate                                 : 60 b/s
Count of elements                        : 1141
Stream size                              : 36.5 KiB (0%)
Language                                 : Italian
Default                                  : No
Forced                                   : No


Click To Enlarge Image

 
 
 
 
 
 

Category:Movies > HDRips
Lang:English  English
Total Size:1.92 GB
Info Hash:a109cb6a959dbd0d2c35ff512a1a5d1a45226f2d
Added By:Freaky
Date Added:07-07-2018 21:45:16
Views:154
Hits:49

Download Torrent

Ratings:Not Yet Rated (Log in to rate it)


Tracker:
udp://tracker.coppersurfer.tk:6969/announce


File List: 


Comments

No comments still posted

Powered by 10 Hamsters v2-svn -|- Page Generated In 4.025014 secs.
-|- RSS FEED
Theme By: Nikkbu