[Login] or [Signup]
Login
Username:
Password:
[Signup]
[Recover Account]


Poll


You must be logged in to view polls



Torrent Details For "Jaya Janaki Nayaka (2017) UNCUT 720p HDRip x264 [Dual Audio]-[Hindi DD2.0 + Telugu] 1.4GB [MovC..."

Jaya Janaki Nayaka (2017) UNCUT 720p HDRip x264 [Dual Audio]-[Hindi DD2.0 + Telugu] 1.4GB [MovC...

Download this torrent | Magnet Download
Health:
Seeds: 1,178
Leechers: 474
Completed: 20,564 
Last Checked: 11-07-2018 21:22:08
External Torrent
Update Stats
Download Magnet


Poster


iMDB
Imdb Picture Title: Jaya Janaki Nayaka
Year: 2017
Runtime: 149 minutes
Votes: 79
Rating: 5.4/10
Language: Telugu
Country: India
All Genres: Action, Romance
Director: Boyapati Srinu
Writing By: M. Rathnam,Boyapati Srinu,Boyapati Srinu,
Produced By: Vivek Kuchibhotla,Miryala Ravinder Reddy,
Music: Devi Sri Prasad
Cast:
Tarun Arora as Arun Pawar
Jagapathi Babu as Ashwadh Narayana Varma
Sai Srinivas Bellamkonda as Gagan
Chalapathi Rao as Satyam
Pragya Jaiswal as Falguni
Sarath Kumar as Chakravarthy
Ocean Navarro as Pink Cheerleader
Shashank as Veerendra Varma
Rakul Preet Singh as Janaki


Watch-Free-HD     Download

Details
Name:Jaya Janaki Nayaka (2017) UNCUT 720p HDRip x264 [Dual Audio]-[Hindi DD2.0 + Telugu] 1.4GB [MovC...
Description:
Jaya Janaki Nayaka (2017) UNCUT 720p HDRip x264 [Dual Audio]-[Hindi DD2.0 + Telugu] 1.4GB [MovCr Exclusive]

Visit Our Site For Exclusives And Direct Links  www.movcr.com

KHOONKHAR....|

Enjoy Jaya Janaki Nayaka , An Romantic Action Movie In Uncut Hindi Dubbed Exclusive By Movcr

Added Telugu Audio In Between To Make Perfect Sync Uncut HDRip

No Sync Issue..Check Sample http://openload.co/f/drQAAKmr...-00_35_16.613%29.mkv


 http://www.imdb.com/title/tt7286562/

 

General
Unique ID                   : 302335195136091377225439558324955317175 (0xE373A3FB719337FCAB2F157AEC8B03B7)
Complete name               : Jaya Janaki Nayaka (2017) UNCUT 720p HDRip x264 [Dual Audio]-[Hindi DD2.0 + Telugu] 1.4 GB [MovCr Exclusive]\www.MovCr.com - Jaya Janaki Nayaka (2017) UNCUT 720p HDRip x264 [Dual Audio]-[Hindi DD2.0 + Telugu] 1.4 GB [MovCr].mkv
Format                      : Matroska
Format version              : Version 4 / Version 2
File size                   : 1.44 GiB
Duration                    : 2 h 27 min
Overall bit rate mode       : Variable
Overall bit rate            : 1 403 kb/s
Movie name                  : www.MovCr.com
Encoded date                : UTC 2018-07-07 20:55:14
Writing application         : mkvmerge v23.0.0 ('The Bride Said No') 64-bit
Writing library             : libebml v1.3.6 + libmatroska v1.4.9

Video
ID                          : 1
Format                      : AVC
Format/Info                 : Advanced Video Codec
Format profile              : [email protected]
Format settings, CABAC      : Yes
Format settings, ReFrames   : 4 frames
Codec ID                    : V_MPEG4/ISO/AVC
Duration                    : 2 h 27 min
Bit rate                    : 1 226 kb/s
Width                       : 1 280 pixels
Height                      : 536 pixels
Display aspect ratio        : 2.40:1
Frame rate mode             : Constant
Frame rate                  : 25.000 FPS
Color space                 : YUV
Chroma subsampling          : 4:2:0
Bit depth                   : 8 bits
Scan type                   : Progressive
Bits/(Pixel*Frame)          : 0.071
Stream size                 : 1.26 GiB (87%)
Title                       : www.MovCr.com
Writing library             : x264 core 148 r2744 b97ae06
Encoding settings           : cabac=1 / ref=3 / deblock=1:0:0 / analyse=0x3:0x113 / me=hex / subme=7 / psy=1 / psy_rd=1.00:0.00 / mixed_ref=1 / me_range=16 / chroma_me=1 / trellis=1 / 8x8dct=1 / cqm=0 / deadzone=21,11 / fast_pskip=1 / chroma_qp_offset=-2 / threads=17 / lookahead_threads=2 / sliced_threads=0 / nr=0 / decimate=1 / interlaced=0 / bluray_compat=0 / constrained_intra=0 / bframes=3 / b_pyramid=2 / b_adapt=1 / b_bias=0 / direct=1 / weightb=1 / open_gop=0 / weightp=2 / keyint=250 / keyint_min=25 / scenecut=40 / intra_refresh=0 / rc_lookahead=40 / rc=2pass / mbtree=1 / bitrate=1226 / ratetol=1.0 / qcomp=0.60 / qpmin=0 / qpmax=69 / qpstep=4 / cplxblur=20.0 / qblur=0.5 / ip_ratio=1.40 / aq=1:1.00
Language                    : Telugu
Default                     : Yes
Forced                      : No

Audio #1
ID                          : 2
Format                      : MPEG Audio
Format version              : Version 1
Format profile              : Layer 3
Mode                        : Joint stereo
Mode extension              : MS Stereo
Codec ID                    : A_MPEG/L3
Codec ID/Hint               : MP3
Duration                    : 2 h 27 min
Bit rate mode               : Variable
Bit rate                    : 96.0 kb/s
Channel(s)                  : 2 channels
Sampling rate               : 44.1 kHz
Frame rate                  : 38.281 FPS (1152 spf)
Compression mode            : Lossy
Stream size                 : 98.9 MiB (7%)
Title                       : www.MovCr.com
Writing library             : LAME3.99r
Encoding settings           : -m j -V 4 -q 3 -lowpass 15.1 --abr 96
Language                    : Hindi
Default                     : Yes
Forced                      : No

Audio #2
ID                          : 3
Format                      : MPEG Audio
Format version              : Version 1
Format profile              : Layer 3
Mode                        : Joint stereo
Mode extension              : MS Stereo
Codec ID                    : A_MPEG/L3
Codec ID/Hint               : MP3
Duration                    : 2 h 27 min
Bit rate mode               : Variable
Bit rate                    : 80.3 kb/s
Nominal bit rate            : 96.0 kb/s
Channel(s)                  : 2 channels
Sampling rate               : 44.1 kHz
Frame rate                  : 38.281 FPS (1152 spf)
Compression mode            : Lossy
Stream size                 : 84.6 MiB (6%)
Title                       : www.MovCr.com
Writing library             : LAME3.99r
Encoding settings           : -m j -V 4 -q 3 -lowpass 15.1 --abr 96
Language                    : Telugu
Default                     : No
Forced                      : No



                                       
Category:Movies > South Dub
Lang:Hindi
Total Size:1.44 GB
Info Hash:608853ef94c395c8c5a64f5a229c0e186254dc88
Added By:MAZE
Date Added:07-07-2018 22:10:16
Views:1,095
Hits:234

Download Torrent

Ratings:Not Yet Rated (Log in to rate it)


Tracker:
udp://tracker.coppersurfer.tk:6969/announce


File List: 


Comments

No comments still posted

Powered by 10 Hamsters v2-svn -|- Page Generated In 3.518912 secs.
-|- RSS FEED
Theme By: Nikkbu