[Login] or [Signup]
Login
Username:
Password:
[Signup]
[Recover Account]


Poll


You must be logged in to view polls



Torrent Details For "18+ The Guru 2002 x264 720p Esub HD Dual Audio English Hindi GOPISAHI"

18+ The Guru 2002 x264 720p Esub HD Dual Audio English Hindi GOPISAHI

Download this torrent | Magnet Download
Health:
Seeds: 583
Leechers: 329
Completed: 828 
Last Checked: 13-07-2018 11:42:21
External Torrent
Update Stats
Download Magnet


Poster
No poster


Watch-Free-HD     Download

Details
Name:18+ The Guru 2002 x264 720p Esub HD Dual Audio English Hindi GOPISAHI
Description:
 http://www.gopisahi.pw/

Format                         : Matroska
Format version                 : Version 4 / Version 2
File size                      : 671 MiB
Duration                       : 1 h 34 min
Overall bit rate               : 994 kb/s
Movie name                     : 18+ The Guru 2002 GOPISAHI

VideoA
Format                         : AVC
Codec ID                       : V_MPEG4/ISO/AVC
Duration                       : 1 h 34 min
Bit rate                       : 799 kb/s
Width                          : 1 280 pixels
Height                         : 720 pixels
Display aspect ratio           : 16:9
Frame rate mode                : Constant
Frame rate                     : 23.976 (24000/1001) FPS
Color space                    : YUV
Chroma subsampling             : 4:2:0
Bit depth                      : 8 bits
Scan type                      : Progressive
Bits/(Pixel*Frame)             : 0.036
Stream size                    : 539 MiB (80%)
Title                          : GOPISAHI
Writing library                : x264 core 155 r2901 7d0ff22

Audio #1
Format                         : AAC
Duration                       : 1 h 34 min
Bit rate                       : 96.0 kb/s
Channel(s)                     : 2 channels
Channel positions              : Front: L R
Sampling rate                  : 48.0 kHz
Frame rate                     : 46.875 FPS (1024 SPF)
Compression mode               : Lossy
Delay relative to video        : -126 ms
Stream size                    : 65.1 MiB (10%)
Title                          : GOPISAHI
Language                       : Hindi


Audio #2
Format                         : AAC
Duration                       : 1 h 34 min
Bit rate                       : 96.0 kb/s
Channel(s)                     : 2 channels
Channel positions              : Front: L R
Sampling rate                  : 48.0 kHz
Frame rate                     : 46.875 FPS (1024 SPF)
Compression mode               : Lossy
Delay relative to video        : -126 ms
Stream size                    : 64.9 MiB (10%)
Title                          : GOPISAHI
Language                       : English

Text
Language                       : English


Category:Movies > Hollywood Dub
Lang:Hindi
Total Size:671.15 MB
Info Hash:58b8bb9c1465ab78caebefbcd131c10e547fa3aa
Added By:gopisahi
Date Added:12-07-2018 16:42:10
Views:1,654
Hits:193

Download Torrent

Ratings:Not Yet Rated (Log in to rate it)


Tracker:
udp://9.rarbg.com:2740/announce


File List: 


Comments

No comments still posted

Powered by 10 Hamsters v2-svn -|- Page Generated In 0.238238 secs.
-|- RSS FEED
Theme By: Nikkbu